请选择 进入手机版 | 继续访问电脑版

醉音论坛

 找回密码
 立即注册
查看: 22|回复: 0

[原抓发烧] 王馨平《馨平气和》1996/WAV+CUE/百度

[复制链接]
  • TA的每日心情
    开心
    2020-8-20 16:10
  • 签到天数: 1 天

    [LV.1]初来乍到

    402

    主题

    404

    帖子

    3391

    积分

    积分
    3391
    天天 发表于 2021-2-2 08:59:05 | 显示全部楼层 |阅读模式
    cd.png
    专辑信息:
    《馨平气和》是歌手王馨平在1996年发行的专辑。
    中文名称:《馨平气和》
    专辑寓言:普通话
    发行时间:1996年
    发行地区:香港
    唱片公司:宝丽金
    艺术家:王馨平
    歌曲数目:10


    专辑曲目:
    01 心平气和
    02 爱让人太盲目
    03 一个人过的夜晚没是非
    04 寂寞女人心
    05 I Love The Way I Am
    06 爱抚
    07 心好甜
    08 听谎
    09 微笑
    10 猎人

    Exact Audio Copy V1.3 from 2. September 2016

    EAC 抓取日志文件从30. 十二月 2017, 20:18

    王馨平 / 馨平气和

    使用驱动器  :HL-DT-STDVD+-RW GT50N   Adapter: 1  ID: 0

    读取模式      : 可靠Secure
    使用精确流     : 是
    清空音频缓存    : 是
    使用 C2 指示器 : 否

    读取偏移校正:               : 103
    读取 Lead-In 和 Lead-Out : 否
    用静音填充抓取中丢失偏移的采样       : 是
    去除首尾静音块               : 否
    在CRC 计算中使用了空样本       : 是
    已用接口                  : Win NT 及 2000 本地 Win32 接口

    所用输出模式: : 内部 WAV 函数
    样本格式    : 44.100 Hz; 16 Bit; 立体声


    已抓取 CD 的 TOC

         音轨 |    起始    |    长度    |  起始扇区  |  结束扇区  
        --------------------------------------------
          1 |  0:00.00 |  3:59.12 |      0 |  17936
          2 |  3:59.12 |  5:07.63 |  17937 |  41024
          3 |  9:07.00 |  4:14.25 |  41025 |  60099
          4 | 13:21.25 |  3:59.67 |  60100 |  78091
          5 | 17:21.17 |  3:26.45 |  78092 |  93586
          6 | 20:47.62 |  3:50.48 |  93587 | 110884
          7 | 24:38.35 |  4:06.20 | 110885 | 129354
          8 | 28:44.55 |  4:37.07 | 129355 | 150136
          9 | 33:21.62 |  4:36.63 | 150137 | 170899
         10 | 37:58.50 |  3:26.25 | 170900 | 186374


    范围状态及错误

    已选择范围

         文件名 J:\音乐\王馨平 - 馨平气和.wav

         峰值电平 91.6 %
         抓取速度 2.0 X
         范围质量 99.9 %
         复制 CRC BB144230
         复制成功

    没有错误发生

    状态报告结尾
    链接:https://pan.baidu.com/s/1-f_w4U-xw5Fk433-fp3GZA
    提取码:

    购买主题 本主题需向作者支付 5 音币 才能浏览,金币充值
    回复

    使用道具 举报

    您需要登录后才可以回帖 登录 | 立即注册

    本版积分规则

    QQ|Archiver|手机版|小黑屋|cdhires |网站地图

    GMT+8, 2021-2-27 05:50 , Processed in 0.109869 second(s), 34 queries .

    Powered by Discuz! X3.4

    © 2001-2017 Comsenz Inc.

    快速回复 返回顶部 返回列表